Move h4v can be converted for look in 3D TV SBS?

I have a question the movie file caputred with 3d Camera H4V that are quad can be converted to look it on 3D TV like SBS mode?

Thanks

Hey @3DLife,

Videos are captured with a .h4v file extension on Hydrogen and .mp4 on Lume Pad.

Either way, videos are already captured in SBS format and can be played back on legacy 3D devices without conversion. For .h4v files, simply rename them to .mp4 before playing back on another device.

1 Like

Thanks a lot for reply!

Here some info about a movie maked with Red Hydrogen One:

Format : MPEG-4
Format profile : Base Media / Version 2
Codec ID : mp42 (isom/mp42)
File size : 174 MiB
Duration : 2 min 0 s
Overall bit rate : 12.1 Mb/s
com.android.version : 8.1.0

Video
ID : 1
Format : AVC
Format/Info : Advanced Video Codec
Format profile : Baseline@L5
Format settings : 1 Ref Frames
Format settings, CABAC : No
Format settings, Reference : 1 frame
Format settings, GOP : M=1, N=30
Codec ID : avc1
Codec ID/Info : Advanced Video Coding
Duration : 2 min 0 s
Source duration : 2 min 0 s
Bit rate : 12.0 Mb/s
Width : 3 840 pixels
Height : 1 080 pixels
Display aspect ratio : 3.556
Frame rate mode : Variable
Frame rate : 29.840 FPS
Minimum frame rate : 14.975 FPS
Maximum frame rate : 30.685 FPS
Standard : NTSC
Color space : YUV
Chroma subsampling : 4:2:0
Bit depth : 8 bits
Scan type : Progressive
Bits/(Pixel*Frame) : 0.097
Stream size : 172 MiB (99%)
Source stream size : 172 MiB (99%)
Title : VideoHandle
Language : English
Encoded date : UTC 2021-06-03 13:08:06
Tagged date : UTC 2021-06-03 13:08:06
Color range : Limited
Color primaries : BT.2020
colour_primaries_Original : BT.601 PAL
Transfer characteristics : BT.709
transfer_characteristics_Or : BT.601
Matrix coefficients : BT.2020 non-constant
matrix_coefficients_Origina : BT.601
mdhd_Duration : 120308
Codec configuration box : avcC

Audio
ID : 2
Format : AAC LC
Format/Info : Advanced Audio Codec Low Complexity
Codec ID : mp4a-40-2
Duration : 2 min 0 s
Source duration : 2 min 0 s
Bit rate mode : Constant
Bit rate : 96.0 kb/s
Channel(s) : 2 channels
Channel layout : L R
Sampling rate : 48.0 kHz
Frame rate : 46.875 FPS (1024 SPF)
Compression mode : Lossy
Stream size : 1.38 MiB (1%)
Source stream size : 1.38 MiB (1%)
Title : SoundHandle
Language : English